Эпик 3Д / Без чёрных полос (2013) [HDRip, Half OverUnder / Вертикальная анаморфная стереопара] >> Скачать торрент без регистрации <<

15 августа 2013 г. 22:42

 


Полное название: Эпик 3Д / Без чёрных полос (2013) [HDRip, Half OverUnder / Вертикальная анаморфная стереопара]

 

 

 

 

Данный релиз Вы можете Скачать с сайта Открытый торрент-трекер :: Torrent-Lynx.Ru :: (без регистрации) на высокой скорости.
image

 


Полное название: Эпик 3Д / Без чёрных полос (2013) [HDRip, Half OverUnder / Вертикальная анаморфная стереопара]
Тип: Мультфильмы 3D / >> Мультфильмы 3D Стереопары <<

 

 

Год выпуска: 2013
Страна: США
Студия: 20th Century Fox, Blue Sky Studios
Жанр: Мультфильм, Фэнтези, Приключения, Семейный
Продолжительность: 01:42:29

Перевод: Профессиональный (дублированный)
Русские субтитры: нет
Режиссер на русском: Крис Уэдж
Режиссер на английском: Chris Wedge
В ролях: Аманда Сайфред, Джош Хатчерсон, Колин Фаррелл, Джейсон Судейкис, Азиз Ансари, Крис О’Дауд, Кристоф Вальц, Стивен Тайлер, Бейонсе Ноулз, Эллисон Биллс

Описание: После долгой разлуки юная Мэри Кэтрин возвращается в дом, где отшельником живет ее отец, безумный профессор Бомба. Однако тот совсем не обращает внимания на дочь и одержим лишь одной идеей — изучить скрытый от посторонних глаз таинственный лесной мир. Девушка отказывается верить, что под ногами человечества идет вечная борьба между армиями, воюющими на сторонах добра и зла. Чудесным образом Мэри Кэтрин уменьшается в размерах и знакомится с маленькими воинами. Теперь от нее зависит спасение не только волшебного лесного, но и реального человеческого мира…

Аудио 1: Русский / AC3 / 48 KHz / 5.1 ch / 384 Kbps
Аудио 2: Украинский / AC3 / 44 KHz / 2.0 ch / 192 Кбит/сек
Аудио 3: Английский / AC3 / 48 KHz / 5.1 ch / 640 Kbps

 

image image image

image image image

Media Info

Format : Matroska
File size : 8.20 GiB
Duration : 1h 42mn
Overall bit rate : 11.5 Mbps
Movie name : [torrent3d.ru]
Encoded date : UTC 2013-08-15 17:50:22
Writing application : mkvmerge v4.0.0 ('The Stars were mine') сборка от Jun 6 2010 16:18:42
Writing library : libebml v1.0.0 + libmatroska v1.0.0

Video
ID : 1
Format : AVC
Format/Info : Advanced Video Codec
Format profile : High@L4.0
Format settings, CABAC : No
Format settings, ReFrames : 2 frames
Muxing mode : Container profile=Unknown@4.0
Codec ID : V_MPEG4/ISO/AVC
Duration : 1h 42mn
Bit rate : 10.0 Mbps
Width : 1 920 pixels
Height : 1 080 pixels
Display aspect ratio : 16:9
Frame rate mode : Variable
Frame rate : 23.976 fps
Color space : YUV
Chroma subsampling : 4:2:0
Bit depth : 8 bits
Scan type : Progressive
Bits/(Pixel*Frame) : 0.201
Stream size : 7.17 GiB (87%)

Audio #1
ID : 2
Format : AC-3
Format/Info : Audio Coding 3
Mode extension : CM (complete main)
Codec ID : A_AC3
Duration : 1h 42mn
Bit rate mode : Constant
Bit rate : 384 Kbps
Channel(s) : 6 channels
Channel positions : Front: L C R, Side: L R, LFE
Sampling rate : 48.0 KHz
Stream size : 281 MiB (3%)
Language : Russian

Audio #2
ID : 3
Format : AC-3
Format/Info : Audio Coding 3
Mode extension : CM (complete main)
Codec ID : A_AC3
Duration : 1h 42mn
Bit rate mode : Constant
Bit rate : 192 Kbps
Channel(s) : 2 channels
Channel positions : Front: L R
Sampling rate : 44.1 KHz
Stream size : 141 MiB (2%)
Language : Ukrainian

Audio #3
ID : 4
Format : AC-3
Format/Info : Audio Coding 3
Mode extension : CM (complete main)
Codec ID : A_AC3
Duration : 1h 42mn
Bit rate mode : Constant
Bit rate : 640 Kbps
Channel(s) : 6 channels
Channel positions : Front: L C R, Side: L R, LFE
Sampling rate : 48.0 KHz
Stream size : 469 MiB (6%)

 


Размер: 8.20 GB

 

 

Данный релиз можно скачать с сайта Всё 3D Рунета - торрент-трекера 3D фильмов, мультфильмов, документальных передач в форматах стереопара, анаглиф, 3D Blu-Ray.


Размер: 8.20 GB