Эпик 3Д / Epic 3D (2013) [BDRip, Half OverUnder / Вертикальная анаморфная стереопара] >> Скачать торрент без регистрации <<

9 августа 2013 г. 1:46

 


Полное название: Эпик 3Д / Epic 3D (2013) [BDRip, Half OverUnder / Вертикальная анаморфная стереопара]

 

 

 

 

Данный релиз Вы можете Скачать с сайта Открытый торрент-трекер :: Torrent-Lynx.Ru :: (без регистрации) на высокой скорости.
image

 


Полное название: Эпик 3Д / Epic 3D (2013) [BDRip, Half OverUnder / Вертикальная анаморфная стереопара]
Тип: Мультфильмы 3D / >> Мультфильмы 3D Стереопары <<
Информация о фильме
Название: Эпик
Оригинальное название: Epic
Год выхода: 2013
Жанр: мультфильм, фэнтези, приключения, комедия, семейный
Режиссер: Крис Уэдж
В ролях: Джейсон Судейкис, Стивен Тайлер, Аманда Сайфред, Питбулл, Бейонсе Ноулз, Джош Хатчерсон, Джуда Фридлендер, Колин Фаррелл, Азиз Ансари, Блейк Андерсон

О фильме:
Анимационный фильм "Эпик" расскажет историю отважного лесного народа и обычной девочки, которой по воле судьбы придётся спасать человечество.
Юная и находчивая Мэри Кейт после долгих лет разлуки возвращается домой к отцу - безумному отшельнику Профессору Бомбе. Он живёт в небольшом доме, одержимый лишь одной идеей - изучить скрытый от посторонних глаз лесной мир. Мери уверена, что её отец не от мира сего. Он постоянно бредит существованием маленьких человечков, живущих в лесу. Девушка отказывается верить, что под ногами человечества идёт вечная война между армиями, воюющими на сторонах добра и зла. После очередного разговора с отцом, заключавшегося в просьбе стать нормальным и не искать то, чего нет, она вновь собирается уезжать. Но погода резко меняется и прямо на глазах у Мери маленькая женщина падает с дерева. Этой женщиной оказалась королева растущего вокруг леса и всех его обитателей.


Страна: США
Продолжительность: 01:42:47

 

 

Перевод: Дублированный [Звук с CAMRip]

 

MediaInfo
Format : Matroska
File size : 9.07 GiB
Duration : 1h 42mn
Overall bit rate : 12.6 Mbps
Movie name : [torrent3d.ru]
Encoded date : UTC 2013-08-08 21:17:16
Writing application : mkvmerge v4.0.0 ('The Stars were mine') сборка от Jun 6 2010 16:18:42
Writing library : libebml v1.0.0 + libmatroska v1.0.0

Video
ID : 1
Format : AVC
Format/Info : Advanced Video Codec
Format profile : High@L4.1
Format settings, CABAC : Yes
Format settings, ReFrames : 2 frames
Muxing mode : Container profile=Unknown@4.1
Codec ID : V_MPEG4/ISO/AVC
Duration : 1h 42mn
Bit rate : 12.2 Mbps
Width : 1 920 pixels
Height : 1 080 pixels
Display aspect ratio : 16:9
Frame rate : 23.976 fps
Color space : YUV
Chroma subsampling : 4:2:0
Bit depth : 8 bits
Scan type : Progressive
Bits/(Pixel*Frame) : 0.246
Stream size : 8.79 GiB (97%)
Writing library : x264 core
Color primaries : BT.709-5, BT.1361, IEC 61966-2-4, SMPTE RP177
Transfer characteristics : BT.709-5, BT.1361
Matrix coefficients : BT.709-5, BT.1361, IEC 61966-2-4 709, SMPTE RP177

Audio
ID : 2
Format : MPEG Audio
Format version : Version 1
Format profile : Layer 3
Mode : Joint stereo
Mode extension : MS Stereo
Codec ID : A_MPEG/L3
Codec ID/Hint : MP3
Duration : 1h 42mn
Bit rate mode : Constant
Bit rate : 128 Kbps
Channel(s) : 2 channels
Sampling rate : 48.0 KHz
Stream size : 94.2 MiB (1%)
Writing library : LAME3.99r
Encoding settings : -m j -V 4 -q 9 -lowpass 17 -b 128

Menu
00:00:00.000 : en:00:00:00.000
00:04:48.205 : en:00:04:48.205
00:09:49.589 : en:00:09:49.589
00:13:05.535 : en:00:13:05.535
00:16:50.051 : en:00:16:50.051
00:20:36.193 : en:00:20:36.193
00:24:09.490 : en:00:24:09.490
00:28:17.237 : en:00:28:17.237
00:31:31.848 : en:00:31:31.848
00:34:06.586 : en:00:34:06.586
00:38:21.591 : en:00:38:21.591
00:43:17.428 : en:00:43:17.428
00:44:58.029 : en:00:44:58.029
00:47:04.739 : en:00:47:04.739
00:49:07.945 : en:00:49:07.945
00:52:40.699 : en:00:52:40.699
00:56:28.885 : en:00:56:28.885
00:59:52.214 : en:00:59:52.214
01:03:27.387 : en:01:03:27.387
01:07:48.940 : en:01:07:48.940
01:14:36.472 : en:01:14:36.472
01:18:24.950 : en:01:18:24.950
01:20:13.100 : en:01:20:13.100
01:24:03.038 : en:01:24:03.038
01:25:19.281 : en:01:25:19.281
01:27:34.040 : en:01:27:34.040
01:32:05.520 : en:01:32:05.520
01:34:12.480 : en:01:34:12.480


Размер: 9.07 GB

 

 

Данный релиз можно скачать с сайта Всё 3D Рунета - торрент-трекера 3D фильмов, мультфильмов, документальных передач в форматах стереопара, анаглиф, 3D Blu-Ray.


Размер: 9.07 GB