Кошмар за стеной 3D / Behind the Walls 3D (2011) [BDrip, 1080p, Half OverUnder / Вертикальная анаморфная стереопара] >> Скачать торрент без регистрации <<

2 августа 2013 г. 14:02

 


Полное название: Кошмар за стеной 3D / Behind the Walls 3D (2011) [BDrip, 1080p, Half OverUnder / Вертикальная анаморфная стереопара]

 

 

 

 

Данный релиз Вы можете Скачать с сайта Открытый торрент-трекер :: Torrent-Lynx.Ru :: (без регистрации) на высокой скорости.
image

 


Полное название: Кошмар за стеной 3D / Behind the Walls 3D (2011) [BDrip, 1080p, Half OverUnder / Вертикальная анаморфная стереопара]
Тип: Фильмы 3D / >> Фильмы 3D Стереопары <<
Название: Кошмар за стеной
Оригинальное название: Derriere les murs
Год выпуска: 2011
Жанр: Ужасы, триллер, драма, детектив
Выпущено: Франция, Sombrero Films, Sombrero Productions, Canal+
Режиссер: Жюльен Лякомб, Паскаль Сид
В ролях: Летиция Каста, Тьерри Новик, Жак Боннаффе, Роже Дюма, Анн Бенуа, Энн Лорье, Чарлин Пол, Матильда Толлеро

Продолжительность: 01:26:31
Перевод: Дублированный

О фильме: Центральная Франция, 1922 год. Сюзанна, молодая писательница, ищет вдохновения для новой книги, уединившись в загородном доме. Исследуя особняк, она находит потайную комнату в подвале. Женщину начинают преследовать кошмары и видения, вдобавок ее присутствие заставляет нервничать местных жителей: вскоре в деревне мистическим образом начинают исчезать маленькие девочки…

 

MediaInfo
Format : Matroska
File size : 9.71 GiB
Duration : 1h 26mn
Overall bit rate : 16.1 Mbps
Movie name : [torrent3d.ru]
Encoded date : UTC 2013-08-02 09:24:05
Writing application : mkvmerge v4.0.0 ('The Stars were mine') сборка от Jun 6 2010 16:18:42
Writing library : libebml v1.0.0 + libmatroska v1.0.0

Video
ID : 1
Format : AVC
Format/Info : Advanced Video Codec
Format profile : High@L4.1
Format settings, CABAC : Yes
Format settings, ReFrames : 2 frames
Muxing mode : Container profile=Unknown@4.1
Codec ID : V_MPEG4/ISO/AVC
Duration : 1h 26mn
Bit rate : 15.1 Mbps
Width : 1 920 pixels
Height : 1 080 pixels
Display aspect ratio : 16:9
Frame rate : 23.976 fps
Color space : YUV
Chroma subsampling : 4:2:0
Bit depth : 8 bits
Scan type : Progressive
Bits/(Pixel*Frame) : 0.304
Stream size : 9.13 GiB (94%)
Writing library : x264 core
Color primaries : BT.709-5, BT.1361, IEC 61966-2-4, SMPTE RP177
Transfer characteristics : BT.709-5, BT.1361
Matrix coefficients : BT.709-5, BT.1361, IEC 61966-2-4 709, SMPTE RP177

Audio
ID : 2
Format : AC-3
Format/Info : Audio Coding 3
Mode extension : CM (complete main)
Codec ID : A_AC3
Duration : 1h 26mn
Bit rate mode : Constant
Bit rate : 640 Kbps
Channel(s) : 6 channels
Channel positions : Front: L C R, Side: L R, LFE
Sampling rate : 48.0 KHz
Stream size : 396 MiB (4%)
Language : Russian

Menu
00:00:00.000 : en:(01)00:00:00:000
00:07:09.303 : en:(02)00:07:09:303
00:13:36.649 : en:(03)00:13:36:649
00:20:56.171 : en:(04)00:20:56:171
00:29:04.284 : en:(05)00:29:04:284
00:38:30.391 : en:(06)00:38:30:391
00:43:50.628 : en:(07)00:43:50:628
00:52:00.659 : en:(08)00:52:00:659
00:58:35.678 : en:(09)00:58:35:678
01:06:50.214 : en:(10)01:06:50:214
01:11:05.844 : en:(11)01:11:05:844
01:16:56.695 : en:(12)01:16:56:695


Размер: 9.71 GB

 

 

Данный релиз можно скачать с сайта Всё 3D Рунета - торрент-трекера 3D фильмов, мультфильмов, документальных передач в форматах стереопара, анаглиф, 3D Blu-Ray.


Размер: 9.71 GB