Original Relaxing Music / Videos from Hawaii 3D (2012) [Half Side-by-Side / Горизонтальная анаморфная стереопара] >> Скачать торрент без регистрации <<

25 августа 2013 г. 0:13

 


Полное название: Original Relaxing Music / Videos from Hawaii 3D (2012) [Half Side-by-Side / Горизонтальная анаморфная стереопара]

 

 

 

 

Данный релиз Вы можете Скачать с сайта Открытый торрент-трекер :: Torrent-Lynx.Ru :: (без регистрации) на высокой скорости.
image

 


Полное название: Original Relaxing Music / Videos from Hawaii 3D (2012) [Half Side-by-Side / Горизонтальная анаморфная стереопара]
Тип: Документальное 3D / >> Документальное 3D Стереопары <<

 

 

Original Ralexing Music / Videos from Hawaii 3D (2012) [Горизонтальная анаморфная стереопара]

 

Жанр: Документальное, Релакс.

Три очень красивых ролика в сопровождении приятной спокойной музыки

*За предоставленное видео Огромное Спасибо dyx!!!

fx42di82qlqv7xf9c7sukjyg6.jpg ujfyxlmqdpzagfmw2ij7hm9e5.jpg tpdiv036frsq40tiyup58bvgl.jpg

snxrsb8wjsvbo2s7im63vumao.jpg kcaqnt4balucjgl23nft6c2h8.jpg t3r747g68xjqlr36tbc645i0n.jpg

MediaInfo Одного из роликов
Format : MPEG-4
Format profile : Base Media / Version 2
Codec ID : mp42
File size : 216 MiB
Duration : 5mn 36s
Overall bit rate : 5 374 Kbps
Encoded date : UTC 2013-08-04 21:55:48
Tagged date : UTC 2013-08-04 21:55:48
gsst : 0
gstd : 336990
gssd : B4A7DD541MH1377340781028350
gshh : r1---sn-o097zues.c.youtube.com

Video
ID : 1
Format : AVC
Format/Info : Advanced Video Codec
Format profile : High@L4.0
Format settings, CABAC : Yes
Format settings, ReFrames : 1 frame
Codec ID : avc1
Codec ID/Info : Advanced Video Coding
Duration : 5mn 36s
Bit rate mode : Variable
Bit rate : 5 179 Kbps
Maximum bit rate : 14.4 Mbps
Width : 1 920 pixels
Height : 1 080 pixels
Display aspect ratio : 16:9
Frame rate mode : Constant
Frame rate : 29.970 fps
Color space : YUV
Chroma subsampling : 4:2:0
Bit depth : 8 bits
Scan type : Progressive
Bits/(Pixel*Frame) : 0.083
Stream size : 208 MiB (96%)
Tagged date : UTC 2013-08-04 21:56:23

Audio
ID : 2
Format : AAC
Format/Info : Advanced Audio Codec
Format version : Version 4
Format profile : LC
Format settings, SBR : No
Codec ID : 40
Duration : 5mn 36s
Bit rate mode : Variable
Bit rate : 192 Kbps
Maximum bit rate : 201 Kbps
Channel(s) : 2 channels
Channel positions : Front: L R
Sampling rate : 44.1 KHz
Stream size : 7.71 MiB (4%)
Title : IsoMedia File Produced by Google, 5-11-2011
Encoded date : UTC 2013-08-04 21:56:10
Tagged date : UTC 2013-08-04 21:56:23


Размер: 679.76 MB

 

 

Данный релиз можно скачать с сайта Всё 3D Рунета - торрент-трекера 3D фильмов, мультфильмов, документальных передач в форматах стереопара, анаглиф, 3D Blu-Ray.


Размер: 679.76 MB