Пекинский международный автосалон 3Д / Beijing International Auto Show 3D (2012) [Half Side-by-Side / Горизонтальная анаморфная стереопара] >> Скачать торрент без регистрации <<

24 августа 2013 г. 15:54

 


Полное название: Пекинский международный автосалон 3Д / Beijing International Auto Show 3D (2012) [Half Side-by-Side / Горизонтальная анаморфная стереопара]

 

 

 

 

Данный релиз Вы можете Скачать с сайта Открытый торрент-трекер :: Torrent-Lynx.Ru :: (без регистрации) на высокой скорости.

bxnq0rjuvt5f7xps1wd18ieh3.jpg rflbeid2vu1c4lynf5j3j3t76.jpg

j4ena75gi7kqabu3end31jwac.jpg 74v3z5v4iwzc380cn0ept7t80.jpg

 


Полное название: Пекинский международный автосалон 3Д / Beijing International Auto Show 3D (2012) [Half Side-by-Side / Горизонтальная анаморфная стереопара]
Тип: Разное
MediaInfo
Format : Windows Media
File size : 712 MiB
Duration : 5mn 0s
Overall bit rate mode : Constant
Overall bit rate : 19.9 Mbps
Maximum Overall bit rate : 20.3 Mbps
Encoded date : UTC 2012-12-04 09:06:47.154

Video
ID : 1
Format : VC-1
Format profile : MP@HL
Codec ID : WMV3
Codec ID/Info : Windows Media Video 9
Codec ID/Hint : WMV3
Description of the codec : Windows Media Video 9 - Professional
Duration : 5mn 0s
Bit rate mode : Constant
Bit rate : 20.0 Mbps
Width : 1 920 pixels
Height : 1 080 pixels
Display aspect ratio : 16:9
Frame rate : 25.000 fps
Bit depth : 8 bits
Scan type : Progressive
Bits/(Pixel*Frame) : 0.386
Stream size : 717 MiB
Language : Chinese (CN)

Audio
ID : 2
Format : WMA
Format version : Version 2
Codec ID : 161
Codec ID/Info : Windows Media Audio
Description of the codec : Windows Media Audio 9.2 - 128 kbps, 48 kHz, stereo 1-pass CBR
Duration : 5mn 0s
Bit rate mode : Constant
Bit rate : 128 Kbps
Channel(s) : 2 channels
Sampling rate : 48.0 KHz
Bit depth : 16 bits
Stream size : 4.59 MiB (1%)
Language : Chinese (CN)

 

*За предоставленное видео Огромное Спасибо Dyx!!!


Размер: 712.29 MB

Данный релиз можно скачать с сайта Всё 3D Рунета - торрент-трекера 3D фильмов, мультфильмов, документальных передач в форматах стереопара, анаглиф, 3D Blu-Ray.


Размер: 712.29 MB