Ра. Ван. Игра еще не окончена 3Д / Ra. One 3D (2011) [BDRip 1080p Half Side-by-Side / Горизонтальная анаморфная стереопара] >> Скачать торрент без регистрации <<

14 августа 2013 г. 20:15

 


Полное название: Ра. Ван. Игра еще не окончена 3Д / Ra. One 3D (2011) [BDRip 1080p Half Side-by-Side / Горизонтальная анаморфная стереопара]

 

 

 

 

Данный релиз Вы можете Скачать с сайта Открытый торрент-трекер :: Torrent-Lynx.Ru :: (без регистрации) на высокой скорости.
image

 


Полное название: Ра. Ван. Игра еще не окончена 3Д / Ra. One 3D (2011) [BDRip 1080p Half Side-by-Side / Горизонтальная анаморфная стереопара]
Тип: Фильмы 3D / >> Фильмы 3D Стереопары <<

 

 

Страна: Индия

Жанр: Фантастика, семейный,
Год выпуска: 2011
Продолжительность: 02:34:06
Перевод: Любительский (многоголосый, закадровый) [Alex White & Irene Black & Mallika]

Режиссер: Анубхав Синха / Anubhav Sinha
В ролях: Шахрукх Кхан, Карина Капур, Арджун Рампал, Шахана Госвами, Сатиш Шах, Далип Тахил, Суреш Менон, Санджай Датт, Раджникант, Джо Иган

Описание: Фильм о Шекхаре, инженере программного обеспечения в Майами, который испытывает видеоигру и пытается победить ее злодея Ра-Вана. Пытаясь найти общий язык со своим сыном-подростком, проектировщик игры создает предельного злодея видеоигр. Когда программа злодея приобретает самосознание, он сбегает из игры и убивает отца. Теперь преследуемый цифровым демоном, так как он — единственный игрок, способный победить его, Мальчик должен извлечь героя игры — который был разработан в воображении его отца. Вместе маловероятный дуэт начинает строить те отношения, которые они никогда не разделяли как отец и сын, а между делом препятствуют плану злодея поработить мир. Сумеют ли они? Самое важное, как они преодолеют препятствия, чтобы одолеть злодея?

Аудио1: Русский AC-3, 384 Kbps, 6 channels

 

Аудио2: Хинди AC-3, 640 Kbps, 6 channels

Скачать Сэмпл

image image image

image image image

*За предоставленное видео Огромное Спасибо dyx!!!

MediaInfo
Format : Matroska
File size : 14.0 GiB
Duration : 2h 34mn
Overall bit rate : 13.0 Mbps
Movie name : [torrent3d.ru]
Encoded date : UTC 2013-08-14 14:49:54
Writing application : mkvmerge v4.0.0 ('The Stars were mine') сборка от Jun 6 2010 16:18:42
Writing library : libebml v1.0.0 + libmatroska v1.0.0

Video
ID : 1
Format : AVC
Format/Info : Advanced Video Codec
Format profile : High@L4.1
Format settings, CABAC : Yes
Format settings, ReFrames : 2 frames
Muxing mode : Container profile=Unknown@4.1
Codec ID : V_MPEG4/ISO/AVC
Duration : 2h 34mn
Bit rate : 11.7 Mbps
Width : 1 920 pixels
Height : 1 080 pixels
Display aspect ratio : 16:9
Frame rate : 23.976 fps
Color space : YUV
Chroma subsampling : 4:2:0
Bit depth : 8 bits
Scan type : Progressive
Bits/(Pixel*Frame) : 0.236
Stream size : 12.6 GiB (90%)
Writing library : x264 core
Color primaries : BT.709-5, BT.1361, IEC 61966-2-4, SMPTE RP177
Transfer characteristics : BT.709-5, BT.1361
Matrix coefficients : BT.709-5, BT.1361, IEC 61966-2-4 709, SMPTE RP177

Audio #1
ID : 2
Format : AC-3
Format/Info : Audio Coding 3
Mode extension : CM (complete main)
Codec ID : A_AC3
Duration : 2h 34mn
Bit rate mode : Constant
Bit rate : 384 Kbps
Channel(s) : 6 channels
Channel positions : Front: L C R, Side: L R, LFE
Sampling rate : 48.0 KHz
Video delay : 16ms
Stream size : 424 MiB (3%)

Audio #2
ID : 3
Format : AC-3
Format/Info : Audio Coding 3
Mode extension : CM (complete main)
Codec ID : A_AC3
Duration : 2h 34mn
Bit rate mode : Constant
Bit rate : 640 Kbps
Channel(s) : 6 channels
Channel positions : Front: L C R, Side: L R, LFE
Sampling rate : 48.0 KHz
Stream size : 706 MiB (5%)
Language : Hindi

Menu
00:00:00.000 : en:(01)00:00:00:000
00:12:52.772 : en:(02)00:12:52:772
00:23:55.642 : en:(03)00:23:55:642
00:36:22.013 : en:(04)00:36:22:013
00:46:53.101 : en:(05)00:46:53:101
01:04:25.570 : en:(06)01:04:25:570
01:12:48.989 : en:(07)01:12:48:989
01:23:42.767 : en:(08)01:23:42:767
01:37:28.384 : en:(09)01:37:28:384
01:54:32.699 : en:(10)01:54:32:699
02:05:49.542 : en:(11)02:05:49:542
02:22:05.099 : en:(12)02:22:05:099
02:34:06.528 : en:(13)02:34:06:528

Данный релиз можно скачать с сайта Всё 3D Рунета - торрент-трекера 3D фильмов, мультфильмов, документальных передач в форматах стереопара, анаглиф, 3D Blu-Ray.


Размер: 14.02 GB