Rain / The Best Show 3D (2011) [BDRip, Half Side-by-Side / Горизонтальная анаморфная стереопара] >> Скачать торрент без регистрации <<

5 августа 2013 г. 16:14

 


Полное название: Rain / The Best Show 3D (2011) [BDRip, Half Side-by-Side / Горизонтальная анаморфная стереопара]

 

 

 

 

Данный релиз Вы можете Скачать с сайта Открытый торрент-трекер :: Torrent-Lynx.Ru :: (без регистрации) на высокой скорости.

Before enlisting for army duty, Rain went on his nationwide The Best Show tour in South Korea from August to September 2011, culminating in Seoul with the final concert at the Olympic Park Gymnastics Stadium. As always, he put on a stellar show filled with hit songs and amazing dance performances for all his fans. In August 2012, Rain's The Best Show was released in theaters as a 95-minute 3D concert movie featuring highlights from the Seoul concert. Experience Rain in 3D with this Blu-ray release!

СКАЧАТЬ СЭМПЛ
 

Spoiler
Format : Matroska
File size : 8.38 GiB
Duration : 1h 35mn
Overall bit rate : 12.6 Mbps
Movie name : [torrent3d.ru]
Encoded date : UTC 2013-08-05 08:33:05
Writing application : mkvmerge v4.0.0 ('The Stars were mine') сборка от Jun 6 2010 16:18:42
Writing library : libebml v1.0.0 + libmatroska v1.0.0

Video
ID : 1
Format : AVC
Format/Info : Advanced Video Codec
Format profile : High@L4.1
Format settings, CABAC : Yes
Format settings, ReFrames : 4 frames
Format settings, GOP : M=4, N=32
Muxing mode : Container profile=Unknown@4.1
Codec ID : V_MPEG4/ISO/AVC
Duration : 1h 35mn
Bit rate : 12.0 Mbps
Width : 1 920 pixels
Height : 1 080 pixels
Display aspect ratio : 16:9
Frame rate : 23.976 fps
Color space : YUV
Chroma subsampling : 4:2:0
Bit depth : 8 bits
Scan type : Progressive
Bits/(Pixel*Frame) : 0.241
Stream size : 7.78 GiB (93%)
Title : cnliti
Writing library : x264 core 120 r2146 bcd41db
Encoding settings : cabac=1 / ref=3 / deblock=1:0:0 / analyse=0x3:0x113 / me=hex / subme=7 / psy=1 / psy_rd=1.00:0.00 / mixed_ref=1 / me_range=16 / chroma_me=1 / trellis=1 / 8x8dct=1 / cqm=0 / deadzone=21,11 / fast_pskip=1 / chroma_qp_offset=-2 / threads=12 / sliced_threads=0 / nr=0 / decimate=1 / interlaced=0 / bluray_compat=0 / constrained_intra=0 / bframes=3 / b_pyramid=2 / b_adapt=1 / b_bias=0 / direct=1 / weightb=1 / open_gop=0 / weightp=2 / keyint=250 / keyint_min=23 / scenecut=40 / intra_refresh=0 / rc_lookahead=40 / rc=abr / mbtree=1 / bitrate=12000 / ratetol=1.0 / qcomp=0.60 / qpmin=0 / qpmax=69 / qpstep=4 / ip_ratio=1.40 / aq=1:1.00

Audio
ID : 2
Format : AC-3
Format/Info : Audio Coding 3
Mode extension : CM (complete main)
Codec ID : A_AC3
Duration : 1h 35mn
Bit rate mode : Constant
Bit rate : 640 Kbps
Channel(s) : 6 channels
Channel positions : Front: L C R, Side: L R, LFE
Sampling rate : 48.0 KHz
Stream size : 437 MiB (5%)
Title : cnliti
Language : Korean


pic pic pic pic pic pic

 

 


Размер: 8.38 GB