Шерлок Холмс / Sherlock Holmes (2009) [Half OverUnder / Вертикальная анаморфная стереопара] >> Скачать торрент без регистрации <<

11 августа 2013 г. 7:51

 


Полное название: Шерлок Холмс / Sherlock Holmes (2009) [Half OverUnder / Вертикальная анаморфная стереопара]

 

 

 

 

Данный релиз Вы можете Скачать с сайта Открытый торрент-трекер :: Torrent-Lynx.Ru :: (без регистрации) на высокой скорости.
image

 


Полное название: Шерлок Холмс / Sherlock Holmes (2009) [Half OverUnder / Вертикальная анаморфная стереопара]
Тип: Конвертации 2Д->3D
Название: Шерлок Холмс Вертикальная Анаморфная стереопара
Оригинальное название: Sherlock Holmes Half OverUnder
Год выхода: 2009
Жанр: боевик, триллер, драма, комедия, криминал, детектив, приключения
Режиссер: Гай Ричи
В ролях: Роберт Дауни мл., Джуд Лоу, Рэйчел МакАдамс, Марк Стронг, Келли Рейли, Эдди Марсан, Джеймс Фокс, Ханс Мэтисон, Уильям Хьюстон, Уильям Хоуп, Брона Галлахер, Джеральдин Джеймс

О фильме: Перед нами - очередная экранизация известного произведения, просто обречённая быть снятой рано или поздно, далеко не первая и наверняка не последняя. В связи с хроническим отсутствием гениальных идей, длящейся уже не первый год, такая классика, написанная сэром Артуром Конан Дойлем просто не могла долго находиться в забвении."Шерлок Холмс" Гая Ричи перечеркнёт все ваши представления о всемирно известном гении сыска и его верном помощнике. Забудьте всё, что знали о них до сегодняшнего дня и приготовьтесь познакомиться заново. Вас ожидает несколько неожиданная интерпретация образов главных героев. В отличие от оригинального произведения, главные герои которого весьма классичны и атмосферны, неспешны и неэффектны, в этом фильме вся образность выглядит по-новому, переосмысленно и весьма впечатляюще.

 

 

Шерлок Холмс – лучший в мире сыщик, а его друг доктор Ватсон – верный соратник, помощь которого порой неоценима. Вместе эти двое практически непобедимы, но скоро их гармоничный дуэт будет разбит: Ватсон решает жениться, и Холмс, никогда не понимавший прелесть семейной жизни, всеми силами пытается заинтересовать его в новом расследовании. Впрочем, Ватсон в любом случае оказался бы втянут в очередное противостояние между Холмсом и криминальным миром Лондона. Главным злодеем в фильме является один маг - лорд Блэквудом, который обвиняется в пяти убийствах. После задержания он вел себя очень странно, говорил загадками о том, что мир вскоре изменится. Его приговорили к смертной казни. После его похорон, по городу разнеслась сенсация - смотритель кладбища видел его живым, а в гробу, в котором он лежал нашли другого человека. Шерлок Холмс вместе с Ватсоном решают развеять миф о том, что это колдовство и магия. Если знаменитый дуэт не вычислит планы преступника и не нарушит их, весь Лондон будет стерт с лица земли. И пусть таинственные преступления кажутся мистическим ритуалом, Холмс все равно разгадает, что кроется за обманчивой видимостью и какие цели преследует могущественный злодей. Сыщику и его верному другу не страшны любые опасности: боксер Холмс и бывший военный Ватсон кулаками владеют не хуже, чем своим серым веществом.

 

Скачать Сэмпл

Выпущено: США, Германия

Продолжительность: 02:13:51

 

Перевод: Дублированный + Оригинал

 

MediaInfo
Format : Matroska
File size : 10.4 GiB
Duration : 2h 13mn
Overall bit rate : 11.1 Mbps
Movie name : [torrent3d.ru]
Encoded date : UTC 2013-08-11 02:35:04
Writing application : mkvmerge v4.0.0 ('The Stars were mine') сборка от Jun 6 2010 16:18:42
Writing library : libebml v1.0.0 + libmatroska v1.0.0

Video
ID : 1
Format : AVC
Format/Info : Advanced Video Codec
Format profile : High@L4.0
Format settings, CABAC : No
Format settings, ReFrames : 2 frames
Muxing mode : Container profile=Unknown@4.0
Codec ID : V_MPEG4/ISO/AVC
Duration : 2h 13mn
Bit rate : 10.0 Mbps
Width : 1 920 pixels
Height : 1 080 pixels
Display aspect ratio : 16:9
Frame rate mode : Variable
Frame rate : 23.976 fps
Color space : YUV
Chroma subsampling : 4:2:0
Bit depth : 8 bits
Scan type : Progressive
Bits/(Pixel*Frame) : 0.202
Stream size : 9.38 GiB (90%)

Audio #1
ID : 2
Format : AC-3
Format/Info : Audio Coding 3
Mode extension : CM (complete main)
Codec ID : A_AC3
Duration : 2h 13mn
Bit rate mode : Constant
Bit rate : 448 Kbps
Channel(s) : 6 channels
Channel positions : Front: L C R, Side: L R, LFE
Sampling rate : 48.0 KHz
Stream size : 429 MiB (4%)
Title : Дубляж
Language : Russian

Audio #2
ID : 3
Format : AC-3
Format/Info : Audio Coding 3
Mode extension : CM (complete main)
Codec ID : A_AC3
Duration : 2h 13mn
Bit rate mode : Constant
Bit rate : 448 Kbps
Channel(s) : 6 channels
Channel positions : Front: L C R, Side: L R, LFE
Sampling rate : 48.0 KHz
Stream size : 429 MiB (4%)
Title : Оригинал

Menu
00:00:00.000 : :Chapter 1
00:06:46.531 : :Chapter 2
00:11:30.231 : :Chapter 3
00:15:41.607 : :Chapter 4
00:19:08.897 : :Chapter 5
00:23:29.074 : :Chapter 6
00:27:49.876 : :Chapter 7
00:32:01.252 : :Chapter 8
00:37:08.434 : :Chapter 9
00:40:50.406 : :Chapter 10
00:44:37.216 : :Chapter 11
00:47:39.690 : :Chapter 12
00:50:52.173 : :Chapter 13
00:55:17.605 : :Chapter 14
00:59:04.457 : :Chapter 15
01:03:04.780 : :Chapter 16
01:06:08.047 : :Chapter 17
01:11:14.102 : :Chapter 18
01:14:39.349 : :Chapter 19
01:17:36.318 : :Chapter 20
01:23:35.093 : :Chapter 21
01:26:06.953 : :Chapter 22
01:30:57.159 : :Chapter 23
01:35:15.376 : :Chapter 24
01:39:45.979 : :Chapter 25
01:44:18.001 : :Chapter 26
01:48:21.953 : :Chapter 27
01:54:02.710 : :Chapter 28
01:56:07.501 : :Chapter 29
02:00:26.177 : :Chapter 30
02:08:24.488 : :Chapter 31


Размер: 10.42 GB

 

 

Данный релиз можно скачать с сайта Всё 3D Рунета - торрент-трекера 3D фильмов, мультфильмов, документальных передач в форматах стереопара, анаглиф, 3D Blu-Ray.


Размер: 10.42 GB