Стартрек: Возмездие 3Д / Star Trek Into Darkness 3D (2013) [BDrip, Half OverUnder / Вертикальная анаморфная стереопара] >> Скачать торрент без регистрации <<

27 августа 2013 г. 3:21

 


Полное название: Стартрек: Возмездие 3Д / Star Trek Into Darkness 3D (2013) [BDrip, Half OverUnder / Вертикальная анаморфная стереопара]

 

 

 

 

Данный релиз Вы можете Скачать с сайта Открытый торрент-трекер :: Torrent-Lynx.Ru :: (без регистрации) на высокой скорости.
image

 


Полное название: Стартрек: Возмездие 3Д / Star Trek Into Darkness 3D (2013) [BDrip, Half OverUnder / Вертикальная анаморфная стереопара]
Тип: Фильмы 3D / >> Фильмы 3D Стереопары <<
Информация о фильме
Название: Стартрек: Возмездие
Оригинальное название: Star Trek Into Darkness
Год выпуска: 2013
Жанр: Фантастика, боевик, приключения
Режиссер: Джей Джей Абрамс
В ролях: Крис Пайн, Закари Куинто, Зои Салдана, Карл Урбан, Бенедикт Камбербэтч, Саймон Пегг, Элис Ив, Антон Ельчин, Джон Чо, Питер Уэллер

 

 

 

Вернувшись на Землю, команда корабля «Энтерпрайз» обнаруживает, что деятельность и принципы их организации подорваны изнутри. Флот скован необъяснимым ужасом и бездействует, пока мир все глубже погружается в бездну.Капитан Кирк берет на себя руководство операцией по поимке злодея, ответственного за этот хаос и способного уничтожить все человечество.В запутанной игре не на жизнь, а на смерть, любовь и дружба будут принесены в жертву ради единственного, что осталось у Кирка — его команды.

 

 

36wt27oirnekjmlvhtwlpio40.png ndjp5clrvcnal5ny9x9l0tsg5.png 9mqmegc9nrvyi69wvyri8o3qe.png

l5qanq65n5rn0xy80k59v9bvw.png ar480ui5bjhreb60si0g78gh2.png e4zfplg8fd71m12v8j10e1rmz.png

Выпущено: США, Bad Robot, Kurtzman/Orci, Paramount Pictures, Skydance Productions
Продолжительность: 02:12:05
Перевод: Дублированный [Звук с TS]

MediaInfo
Format : Matroska
File size : 11.1 GiB
Duration : 2h 12mn
Overall bit rate : 12.0 Mbps
Movie name : [torrent3d.ru]
Encoded date : UTC 2013-08-26 22:51:59
Writing application : mkvmerge v4.0.0 ('The Stars were mine') сборка от Jun 6 2010 16:18:42
Writing library : libebml v1.0.0 + libmatroska v1.0.0

Video
ID : 1
Format : AVC
Format/Info : Advanced Video Codec
Format profile : High@L4.1
Format settings, CABAC : Yes
Format settings, ReFrames : 2 frames
Muxing mode : Container profile=Unknown@4.1
Codec ID : V_MPEG4/ISO/AVC
Duration : 2h 12mn
Bit rate : 11.6 Mbps
Width : 1 920 pixels
Height : 1 080 pixels
Display aspect ratio : 16:9
Frame rate : 23.976 fps
Color space : YUV
Chroma subsampling : 4:2:0
Bit depth : 8 bits
Scan type : Progressive
Bits/(Pixel*Frame) : 0.234
Stream size : 10.7 GiB (97%)
Writing library : x264 core
Color primaries : BT.709-5, BT.1361, IEC 61966-2-4, SMPTE RP177
Transfer characteristics : BT.709-5, BT.1361
Matrix coefficients : BT.709-5, BT.1361, IEC 61966-2-4 709, SMPTE RP177

Audio
ID : 2
Format : MPEG Audio
Format version : Version 1
Format profile : Layer 3
Codec ID : A_MPEG/L3
Codec ID/Hint : MP3
Duration : 2h 12mn
Bit rate mode : Constant
Bit rate : 128 Kbps
Channel(s) : 2 channels
Sampling rate : 44.1 KHz
Stream size : 121 MiB (1%)

Menu
00:00:00.000 : en:00:00:00.000
00:10:20.370 : en:00:10:20.370
00:19:21.494 : en:00:19:21.494
00:30:03.969 : en:00:30:03.969
00:40:09.115 : en:00:40:09.115
00:46:05.262 : en:00:46:05.262
00:56:38.228 : en:00:56:38.228
01:06:35.783 : en:01:06:35.783
01:12:55.663 : en:01:12:55.663
01:22:45.752 : en:01:22:45.752
01:30:54.741 : en:01:30:54.741
01:38:36.369 : en:01:38:36.369
01:47:09.548 : en:01:47:09.548
01:54:17.142 : en:01:54:17.142
01:59:20.653 : en:01:59:20.653
02:03:18.308 : en:02:03:18.308


Размер: 11.07 GB

 

 

Данный релиз можно скачать с сайта Всё 3D Рунета - торрент-трекера 3D фильмов, мультфильмов, документальных передач в форматах стереопара, анаглиф, 3D Blu-Ray.


Размер: 11.07 GB