Телепорт 3Д / Jumper 3D (2008) [BDRip, 1080p, Half Side-by-Side / Горизонтальная анаморфная стереопара] >> Скачать торрент без регистрации <<

6 августа 2013 г. 21:15

 


Полное название: Телепорт 3Д / Jumper 3D (2008) [BDRip, 1080p, Half Side-by-Side / Горизонтальная анаморфная стереопара]

 

 

 

 

Данный релиз Вы можете Скачать с сайта Открытый торрент-трекер :: Torrent-Lynx.Ru :: (без регистрации) на высокой скорости.
image

 


Полное название: Телепорт 3Д / Jumper 3D (2008) [BDRip, 1080p, Half Side-by-Side / Горизонтальная анаморфная стереопара]
Тип: Фильмы 3D / >> Фильмы 3D Стереопары <<

Название: Телепорт
Оригинальное название: Jumper
Год выпуска: 2008
Жанр: Фантастика, боевик, триллер, приключения
Режиссер: Даг Лайман
В ролях: Хейден Кристенсен, Джейми Белл, Рэйчел Билсон, Дайан Лэйн, Сэмюэл Л. Джексон, Майкл Рукер, Анна-София Робб, Макс Тириот, Джесси Джеймс, Том Халс, Кристен Стюарт, Тедди Данн, Барбара Гэррик, Майкл Уинтер, Массимилиано Паццаглиа, Шон Робертс, Натали Кокс, Мередит Хендерсон, Дамир Андрей, Тони Наппо, Джордж Кинг, Кларк Бисли мл., Симона Лиси, Маттео Карломаньо, Фабрицио Буччи, Джорджо Сантанжело, Марселло Сантони, Франко Сальваторе Ди Стефано, Брэд Бобридж, Анджело Лопез, Роберто Антонелли, Вероника Визентен, Кристиан Пайкс

О фильме: Обычный подросток Дэвид Райс не из самого лучшего района открывает в себе способности к телепортации. Теперь он может в мгновение оказаться в Нью-Йорке, Токио, на античных развалинах Рима, на вершине Эвереста. Он может увидеть "крышу мира" с горы Эверест, увидеть 20 рассветов и 20 закатов и сделать за один день то, что не под силу ни одному человеку. Но не все так просто. Однако в один момент он обнаруживает, что стал мишенью. На него, как и на других подобных ему, объявлена охота. На протяжении тысячи лет тайное общество стремиться уничтожить их. Вскоре Дэвид узнает истинную ценность его новых способностей, и получит ответы, во многом определяющие его судьбу.

Страна: США, Канада
Студия: 20th Century Fox Film Corporation, Dune Entertainment, Epsilon Motion Pictures, Jumper Productions, New Regency Pictures, Regency Enterprises
Продолжительность: 01:28:21

 

 

Перевод: Дублированный, профессиональный многоголосый, авторский одноголосый

 

СКАЧАТЬ СЭМПЛ

MediaInfo
File size : 8.73 GiB
Duration : 1h 28mn
Overall bit rate : 14.1 Mbps
Movie name : [torrent3d.ru]
Encoded date : UTC 2013-08-06 12:39:27
Writing application : mkvmerge v4.0.0 ('The Stars were mine') сборка от Jun 6 2010 16:18:42
Writing library : libebml v1.0.0 + libmatroska v1.0.0

Video
ID : 1
Format : AVC
Format/Info : Advanced Video Codec
Format profile : High@L4.1
Format settings, CABAC : Yes
Format settings, ReFrames : 2 frames
Muxing mode : Container profile=Unknown@4.1
Codec ID : V_MPEG4/ISO/AVC
Duration : 1h 28mn
Bit rate : 12.1 Mbps
Width : 1 920 pixels
Height : 1 080 pixels
Display aspect ratio : 16:9
Frame rate : 23.976 fps
Color space : YUV
Chroma subsampling : 4:2:0
Bit depth : 8 bits
Scan type : Progressive
Bits/(Pixel*Frame) : 0.243
Stream size : 7.45 GiB (85%)
Writing library : x264 core
Color primaries : BT.709-5, BT.1361, IEC 61966-2-4, SMPTE RP177
Transfer characteristics : BT.709-5, BT.1361
Matrix coefficients : BT.709-5, BT.1361, IEC 61966-2-4 709, SMPTE RP177

Audio #1
ID : 2
Format : AC-3
Format/Info : Audio Coding 3
Mode extension : CM (complete main)
Codec ID : A_AC3
Duration : 1h 28mn
Bit rate mode : Constant
Bit rate : 448 Kbps
Channel(s) : 6 channels
Channel positions : Front: L C R, Side: L R, LFE
Sampling rate : 48.0 KHz
Stream size : 283 MiB (3%)
Title : Дубляж
Language : Russian

Audio #2
ID : 3
Format : AC-3
Format/Info : Audio Coding 3
Mode extension : CM (complete main)
Codec ID : A_AC3
Duration : 1h 28mn
Bit rate mode : Constant
Bit rate : 448 Kbps
Channel(s) : 6 channels
Channel positions : Front: L C R, Side: L R, LFE
Sampling rate : 48.0 KHz
Stream size : 283 MiB (3%)
Title : LostFilm
Language : Russian

Audio #3
ID : 4
Format : AC-3
Format/Info : Audio Coding 3
Mode extension : CM (complete main)
Codec ID : A_AC3
Duration : 1h 28mn
Bit rate mode : Constant
Bit rate : 448 Kbps
Channel(s) : 6 channels
Channel positions : Front: L C R, Side: L R, LFE
Sampling rate : 48.0 KHz
Stream size : 283 MiB (3%)
Title : Ю. Немахов
Language : Russian

Audio #4
ID : 5
Format : AC-3
Format/Info : Audio Coding 3
Mode extension : CM (complete main)
Codec ID : A_AC3
Duration : 1h 28mn
Bit rate mode : Constant
Bit rate : 448 Kbps
Channel(s) : 6 channels
Channel positions : Front: L C R, Side: L R, LFE
Sampling rate : 48.0 KHz
Stream size : 283 MiB (3%)
Title : Оригинал

Menu
00:00:00.000 : :0:00:00.000
00:04:21.094 : :0:04:21.094
00:07:52.555 : :0:07:52.555
00:12:35.713 : :0:12:35.713
00:15:08.699 : :0:15:08.699
00:17:46.983 : :0:17:46.983
00:22:51.787 : :0:22:51.787
00:25:51.467 : :0:25:51.467
00:28:57.235 : :0:28:57.235
00:31:46.988 : :0:31:46.988
00:32:57.058 : :0:32:57.058
00:36:18.093 : :0:36:18.093
00:39:52.640 : :0:39:52.640
00:43:21.056 : :0:43:21.056
00:48:47.299 : :0:48:47.299
00:51:01.725 : :0:51:01.725
00:54:48.285 : :0:54:48.285
00:59:15.969 : :0:59:15.969
01:02:11.728 : :1:02:11.728
01:07:32.674 : :1:07:32.674
01:12:45.403 : :1:12:45.403
01:17:04.411 : :1:17:04.411
01:20:39.585 : :1:20:39.585
01:23:49.066 : :1:23:49.066

Аудио #1: Русский (АС3, 6 ch, 448 Кбит/c) / Дубляж
Аудио #2: Русский (АС3, 6 ch, 448 Кбит/c) / LostFilm
Аудио #3: Русский (АС3, 6 ch, 448 Кбит/c) / Ю. Немахов
Аудио #4: Английский (АС3, 6 ch, 448 Кбит/c) / Оригинал
Размер: 8.73 GB
 

Данный релиз можно скачать с сайта Всё 3D Рунета - торрент-трекера 3D фильмов, мультфильмов, документальных передач в форматах стереопара, анаглиф, 3D Blu-Ray.


Размер: 8.73 GB