Великий Гэтсби 3Д / The Great Gatsby 3D (2013) [BDRip, Half Side-by-Side / Горизонтальная анаморфная стереопара] >> Скачать торрент без регистрации <<

10 августа 2013 г. 18:43

 


Полное название: Великий Гэтсби 3Д / The Great Gatsby 3D (2013) [BDRip, Half Side-by-Side / Горизонтальная анаморфная стереопара]

 

 

 

 

Данный релиз Вы можете Скачать с сайта Открытый торрент-трекер :: Torrent-Lynx.Ru :: (без регистрации) на высокой скорости.
image

 


Полное название: Великий Гэтсби 3Д / The Great Gatsby 3D (2013) [BDRip, Half Side-by-Side / Горизонтальная анаморфная стереопара]
Тип: Фильмы 3D / >> Фильмы 3D Стереопары <<
Название: Великий Гэтсби 3Д Горизонтальная Анаморфная Стереопара
Оригинальное название: The Great Gatsby 3D Half Side-by-Side
Год выхода: 2013
Жанр: драма, мелодрама
Выпущено: Австралия, США
Режиссер: Баз Лурман
В ролях: Леонардо ДиКаприо, Тоби Магуайр, Кэри Маллиган, Джоэл Эдгертон, Айла Фишер, Лиза Адам, Фрэнк Элдридж, Амитабх Баччан, Стив Бисли, Ричард Картер

Итак, дамы и господа, приветствуйте новый фильм с Леонардо диКаприо собственной персоной! Фильм "Великий Гэтсби" - это яркий и шедевральный рассказ о миллионере Джее Гэтсби (Леонардо ДиКаприо), который раскрывает яркий мир вечеринок и богатства перед новым другом - Ником Кэррауэй (Тоби Магуайр)! В сюжете присутствует также очаровательная блондинка, а вместе с ней и самое роскошное и богатое общество Нью-Йорка 20 века!

Что все мы ищем на протяжении всей жизни? Кто-то скажет - деньги, власть, положение в обществе, виллы на берегу океана и так далее. Ничего подобного! - Все мы ищем любовь, ведь без любви все богатства и положения в обществе не нужны. Этот фильм именно об этом, о любви. Яркая, романтичная история любви не может оставить никого равнодушным. Поражает воображение и великолепный дом главного героя, искромётные вечеринки и потрясающие костюмы героев.

Место действия Нью-Йорк, двадцатые годы - эпоха разлагающейся морали, блистательного джаза и время лихих гуляний и диких вечеринок «королей контрабандного алкоголя». Весной 1922 года, Ник Каррауэй приезжает из Среднего Запада в Нью-Йорк. Преследуя собственную американскую мечту, он селится по соседству с таинственным, известным своими вечеринками миллионером Джеем Гэтсби, а на противоположном берегу бухты проживают его кузина Дэйзи и её муж, повеса и аристократ, Том Бьюкенен. Так Ник оказывается вовлечённым в захватывающий мир богатых — их иллюзий, любви и обманов. Он становится свидетелем происходящего в этом мире и пишет историю невозможной любви, вечных мечтаний и человеческой трагедии, которые являются отражением современных времен и нравов.Весной 1922 года, в эпоху разлагающейся морали, блистательного джаза и «королей контрабандного алкоголя», Ник Каррауэй приезжает из Среднего Запада в Нью-Йорк. Преследуя собственную американскую мечту, он селится по соседству с таинственным, известным своими вечеринками миллионером Джеем Гэтсби, а на противоположном берегу бухты проживают его кузина Дэйзи и её муж, повеса и аристократ, Том Бьюкенен. Так Ник оказывается вовлечённым в захватывающий мир богатых — их иллюзий, любви и обманов. Он становится свидетелем происходящего в этом мире и пишет историю невозможной любви, вечных мечтаний и человеческой трагедии, которые являются отражением современных времен и нравов.

Качество: BDRip
Видео: MKV 1920x1080 ~10700 kbps
Аудио: MP3, 192 kb/s (2 ch)
Продолжительность: 02:22:06

 

 

Перевод: Дублированный [звук c CAMRip] (Скачать Сэмпл)

 

MediaInfo
Format : Matroska
File size : 11.1 GiB
Duration : 2h 22mn
Overall bit rate : 11.2 Mbps
Movie name : [torrent3d.ru]
Encoded date : UTC 2013-08-10 11:04:58
Writing application : mkvmerge v4.0.0 ('The Stars were mine') сборка от Jun 6 2010 16:18:42
Writing library : libebml v1.0.0 + libmatroska v1.0.0

Video
ID : 1
Format : AVC
Format/Info : Advanced Video Codec
Format profile : High@L4.1
Format settings, CABAC : Yes
Format settings, ReFrames : 4 frames
Muxing mode : Container profile=Unknown@4.1
Codec ID : V_MPEG4/ISO/AVC
Duration : 2h 22mn
Bit rate : 10.7 Mbps
Nominal bit rate : 11.3 Mbps
Width : 1 920 pixels
Height : 1 080 pixels
Display aspect ratio : 16:9
Frame rate : 23.976 fps
Color space : YUV
Chroma subsampling : 4:2:0
Bit depth : 8 bits
Scan type : Progressive
Bits/(Pixel*Frame) : 0.216
Stream size : 10.7 GiB (96%)
Writing library : x264 core 130 r2273 b3065e6
Encoding settings : cabac=1 / ref=4 / deblock=1:0:0 / analyse=0x3:0x113 / me=umh / subme=8 / psy=1 / psy_rd=1.00:0.00 / mixed_ref=1 / me_range=16 / chroma_me=1 / trellis=1 / 8x8dct=1 / cqm=0 / deadzone=21,11 / fast_pskip=1 / chroma_qp_offset=-2 / threads=12 / lookahead_threads=2 / sliced_threads=0 / nr=0 / decimate=1 / interlaced=0 / bluray_compat=0 / constrained_intra=0 / bframes=3 / b_pyramid=2 / b_adapt=2 / b_bias=0 / direct=3 / weightb=1 / open_gop=0 / weightp=2 / keyint=250 / keyint_min=23 / scenecut=40 / intra_refresh=0 / rc_lookahead=50 / rc=abr / mbtree=1 / bitrate=11300 / ratetol=1.0 / qcomp=0.60 / qpmin=0 / qpmax=69 / qpstep=4 / ip_ratio=1.40 / aq=1:1.00

Audio
ID : 2
Format : MPEG Audio
Format version : Version 1
Format profile : Layer 3
Mode : Joint stereo
Mode extension : MS Stereo
Codec ID : A_MPEG/L3
Codec ID/Hint : MP3
Duration : 2h 22mn
Bit rate mode : Constant
Bit rate : 192 Kbps
Channel(s) : 2 channels
Sampling rate : 48.0 KHz
Stream size : 195 MiB (2%)

Menu
00:00:00.000 : en:00:00:00.000
00:11:04.080 : en:00:11:04.080
00:22:55.833 : en:00:22:55.833
00:34:26.898 : en:00:34:26.898
00:44:48.728 : en:00:44:48.728
00:55:36.333 : en:00:55:36.333
01:06:20.643 : en:01:06:20.643
01:18:27.786 : en:01:18:27.786
01:31:13.927 : en:01:31:13.927
01:44:11.954 : en:01:44:11.954
01:56:35.155 : en:01:56:35.155
02:05:46.122 : en:02:05:46.122
02:09:40.982 : en:02:09:40.982


Размер: 11.07 GB

 

 

Данный релиз можно скачать с сайта Всё 3D Рунета - торрент-трекера 3D фильмов, мультфильмов, документальных передач в форматах стереопара, анаглиф, 3D Blu-Ray.


Размер: 11.07 GB