Waiting Forever 3D / Guangzhou Concert (2013) [Half Side-by-Side / Горизонтальная анаморфная стереопара] >> Скачать торрент без регистрации <<

24 августа 2013 г. 0:40

 


Полное название: Waiting Forever 3D / Guangzhou Concert (2013) [Half Side-by-Side / Горизонтальная анаморфная стереопара]

 

 

 

 

Данный релиз Вы можете Скачать с сайта Открытый торрент-трекер :: Torrent-Lynx.Ru :: (без регистрации) на высокой скорости.
image

 


Полное название: Waiting Forever 3D / Guangzhou Concert (2013) [Half Side-by-Side / Горизонтальная анаморфная стереопара]
Тип: Музыкальные фильмы / Клипы 3D

 

 

Type: Rock

 

This is a show played by a band who wants to call forth the passion of the old days made by the legendary band——Beyond.What Ka Kui June Day are doing is not just copying but inheriting the sprit of Beyond.2013 is a special year as it is the 30th anniversary of Beyond's foundation and the 20th for Ka Kui's passing away. In such a special year, the band Ka Kui June Day begins their final tribute shows to Beyond from June 30.

30th June 2013 - Twenty years ago today, The greatest rock star Wong Ka Kui left us, remembering the musical genius of Wong Ka Kui concert were holding by his fans in Brown Sugar Jar Futian.... We all have a great time with Beyond songs, and Beyond has always been our ultimate idol regardless of time lapsed.. In the end, we are ending with the song "Gloris Years"

*За предоставленное видео Огромное Спасибо dyx!!!

n5fumwjdfelt19zi0hgdv8dsh.jpg ywae06kupxgy7k5bwn2udaulg.jpg x7e1plobmtbh5vxr3locgpyth.jpg

jxh49or5shk5wlgnoa0bs2n75.jpg tltds41xyetxm4r0fyfscgrdy.jpg jquea7xdor4esjb7w6nvb2ue8.jpg

MediaInfo
Format : Matroska
File size : 3.77 GiB
Duration : 48mn 57s
Overall bit rate : 11.0 Mbps
Movie name : [torrent3d.ru]
Encoded date : UTC 2013-08-23 19:50:57
Writing application : mkvmerge v4.0.0 ('The Stars were mine') сборка от Jun 6 2010 16:18:42
Writing library : libebml v1.0.0 + libmatroska v1.0.0

Video
ID : 1
Format : AVC
Format/Info : Advanced Video Codec
Format profile : High@L4.0
Format settings, CABAC : No
Format settings, ReFrames : 2 frames
Muxing mode : Container profile=Unknown@4.0
Codec ID : V_MPEG4/ISO/AVC
Duration : 48mn 57s
Bit rate : 10.4 Mbps
Width : 1 920 pixels
Height : 1 080 pixels
Display aspect ratio : 16:9
Frame rate mode : Variable
Frame rate : 23.976 fps
Color space : YUV
Chroma subsampling : 4:2:0
Bit depth : 8 bits
Scan type : Progressive
Bits/(Pixel*Frame) : 0.208
Stream size : 3.54 GiB (94%)

Audio
ID : 2
Format : AC-3
Format/Info : Audio Coding 3
Mode extension : CM (complete main)
Codec ID : A_AC3
Duration : 48mn 57s
Bit rate mode : Constant
Bit rate : 448 Kbps
Channel(s) : 6 channels
Channel positions : Front: L C R, Side: L R, LFE
Sampling rate : 48.0 KHz
Stream size : 157 MiB (4%)

Звук живой, запись непосредственно из зала, поэтому очень рекомендую Скачать Сэмпл.


Размер: 3.77 GB

 

 

Данный релиз можно скачать с сайта Всё 3D Рунета - торрент-трекера 3D фильмов, мультфильмов, документальных передач в форматах стереопара, анаглиф, 3D Blu-Ray.


Размер: 3.77 GB